domingo, 1 de febrero de 2015

AnixGames | Sailor Moon Crystal Episodio 11 Subtitulos en Español Avance HD

martes, 25 de noviembre de 2014

The Flash 1x07 "Power Outage" [720p HDTV][Mega-Zippyshare] S01E07 Subtitulos En Español Gratis




The Flash 2014 S01E07 1x07 ''The Flash is Born"
Season 1
[720p HDTV] [English Subtitulos Español] 1x07

[MEDIAFIRE FIREDRIVE MEGA 1FICHIER SHARED]


Imagen enviada

Sinopsis: El Flash (Barry Allen) sube contra Farooq aka Blackout, un meta-humana que puede aprovechar la electricidad. Durante la batalla, Farooq zapping El Flash y sifones toda su electricidad, dejando el flash sin su velocidad. Dr. Wells, Caitlin, y el trabajo de Cisco para revertir los efectos sobre Barry, pero sus esfuerzos se interrumpen cuando Farooq viene golpeando ESTRELLA Labs puertas en busca de Wells, a quien culpa de su accidente. Sin poderes de Barry para protegerlos, el grupo debe encontrar una manera de salvarse de la metahumano. Mientras tanto, Tockman gestiona un golpe dentro del departamento de policía de Central City y toma varias personas como rehenes, incluyendo a Joe e Iris. Mientras Iris es que el flash los salvará, Eddie tiene un as en la manga.
The Flash S01E07 ''Power Outage" 1x07 mega
Idioma: Ingles 
Subtitulos: Español
Este capitulo consta de 5  partes, 4  de 200mb y 1 de 2.23  mb aprox
Peso: 0.800 GB Aprox
TODOS LOS LINKS SON INTERCAMBIABLES ENTRE SI.
información Especifica Del Video

Formato : Matroska
Formato de la versión : Version 4 / Version 2
Tasa de bits total : 3 500Kbps

Video
Formato: AVC
Formato/Info: Advanced Video Codec
Formato del perfil : High@L4.1
Ajustes del formato, CABAC: Si
Ajustes del formato, RefFrames: 5marcos
ID Códe : V_MPEG4/ISO/AVC
Tasa de bits: 3 047Kbps
Ancho: 1 280pixeles
Alto: 720pixeles
Relación de aspecto: 16:9
Modo de velocidad de cuadro: Constante
Velocidad de cuadro: 23,976fps
ColorSpace: YUV
BitDepth/String: 8bits
Tipo de exploración : Progresivo
Bits/(Pixel*cuadro) : 0.138

Audio
Formato : AC-3
Formato/Info: Audio Coding 3
ID Códec : A_AC3
Duración: 1h 0min.
Tipo de tasa de bits : Constante
Tasa de bits : 384Kbps
Canal(es): 2canales
Posiciones del canal: Front: L R
Velocidad de muestreo: 48,0KHz
BitDepth/String : 16bits


Imagen enviada


Imagen enviada
The Flash 1x07 ''Power Outage" S01E07
http://gpaste.us/f/98b3e518

Agradecer No Cuesta Nada
Saludos y que disfruten de esta excelente serie.
Master Vlady

lunes, 24 de noviembre de 2014

Gotham 1x10 "LoveCraft" [720p HDTV][Mega-FireDrive] S01E10 Subtitulos En Español Gratis




Gotham S01E10 1x10 ''LoveCraft"
Season 1 - Final de Mitad de Temporada
[720p HDTV] [English Subtitulos Español] 1x10

[MEDIAFIRE FIREDRIVE MEGA 1FICHIER SHARED]


Imagen enviada
Sinopsis: Después de un paso en falso, Gordon es reasignado al servicio en Arkham Asylum. Mientras tanto, Selina conduce a su nuevo amigo en un peligroso viaje a través de Gotham para evadir a los asesinos que los persiguen.

Gotham S01E10 ''LoveCraft" 1x10
Idioma: Ingles 
Subtitulos: Español
Este capitulo consta de 4  partes, 3  de 200mb y 1 de 170 mb aprox
Peso: 0.770 GB Aprox
TODOS LOS LINKS SON INTERCAMBIABLES ENTRE SI.
información Especifica Del Video

Formato : Matroska
Formato de la versión : Version 4 / Version 2
Tasa de bits total : 3 500Kbps

Video
Formato: AVC
Formato/Info: Advanced Video Codec
Formato del perfil : High@L4.1
Ajustes del formato, CABAC: Si
Ajustes del formato, RefFrames: 5marcos
ID Códe : V_MPEG4/ISO/AVC
Tasa de bits: 3 047Kbps
Ancho: 1 280pixeles
Alto: 720pixeles
Relación de aspecto: 16:9
Modo de velocidad de cuadro: Constante
Velocidad de cuadro: 23,976fps
ColorSpace: YUV
BitDepth/String: 8bits
Tipo de exploración : Progresivo
Bits/(Pixel*cuadro) : 0.138

Audio
Formato : AC-3
Formato/Info: Audio Coding 3
ID Códec : A_AC3
Duración: 1h 0min.
Tipo de tasa de bits : Constante
Tasa de bits : 384Kbps
Canal(es): 2canales
Posiciones del canal: Front: L R
Velocidad de muestreo: 48,0KHz
BitDepth/String : 16bits


Imagen enviada


Imagen enviada
Gotham S01E10 ''LoveCraft" 1x10

http://binbox.io/az5yg#d4fQ5lDB
o
http://gpaste.us/f/11745e4d

Agradecer No Cuesta Nada
Saludos y que disfruten de esta excelente serie.
Master Vlady

The Walking Dead 5x07 "Crossed" [720p Web-dl] Audio Castellano [Mega-ZippyShare] S05E07




The Walking Dead S05E07 5x07 ''Crossed"
Season 5 - Temporada 5
[720p HDTV] [Audio Español España] 5x07

[MEDIAFIRE FIREDRIVE MEGA 4Shared 1FICHIER SHARED]


Imagen enviada
The Walking Dead S05E07 ''Crossed" 5x07
Sinopsis:Algunos miembros están en la iglesia, mientras el resto se encuentra en una misión de rescate.

Idioma: Castellano 
Subtitulos: Sin
Este capitulo consta de 4  partes,  3 de 200mb y 1 de 12  mb aprox
Peso: 0.61 GB Aprox
TODOS LOS LINKS SON INTERCAMBIABLES ENTRE SI.
información Especifica Del Video

Format : Matroska
Format version  : Version 4 / Version 2
File size   : 612 MiB
Duration  : 42mn 57s
Overall bit rate : 1 991 Kbps
Video
Format  : AVC
Format/Info : Advanced Video Codec
Format profile : High@L4.1
Format settings, ReFrames : 5 frames
Codec ID   : V_MPEG4/ISO/AVC
Duration : 42mn 57s
Bit rate : 1 800 Kbps
Width  : 1 280 pixels
Height : 720 pixels
Display aspect ratio  : 16:9
Frame rate: 23.976 fps
Bit depth: 8 bits
Scan type   : Progressive
Bits/(Pixel*Frame: 0.081
Stream size : 541 MiB (88%)
Audio
Format : AC-3
Format/Info : Audio Coding 3
Codec ID  : A_AC3
Duration : 42mn 57s
Bit rate mode  : Constant
Bit rate : 192 Kbps
Stream size: 59.0 MiB (10%)
Language  : Spanish

Imagen enviada


Imagen enviada
The Walking Dead S05E07 ''Crossed" 5x07

http://binbox.io/eO1Sl#02t3UdmD
o
http://gpaste.us/f/9bccbeb7

Agradecer No Cuesta Nada
Saludos y que disfruten de esta excelente serie.
Master Vlady

The Walking Dead 5x07 "Crossed" [720p HDTV][Mega-ZippyShare] S05E07 Subtitulos En Español Gratis




The Walking Dead S05E07 5x07 ''Crossed"
Season 5 - Temporada 5
[720p HDTV] [English Subtitulos Español] 5x07

[MEDIAFIRE FIREDRIVE MEGA 4Shared 1FICHIER SHARED]


Imagen enviada
The Walking Dead S05E07 ''Crossed" 5x07
Sinopsis:Algunos miembros están en la iglesia, mientras el resto se encuentra en una misión de rescate.

Idioma: Ingles 
Subtitulos: Español
Este capitulo consta de 11  partes,  10 de 200mb y 1 de 138 mb aprox
Peso: 2.09 GB Aprox
TODOS LOS LINKS SON INTERCAMBIABLES ENTRE SI.
información Especifica Del Video

Formato : Matroska
Formato de la versión : Version 4 / Version 2
Tasa de bits total : 3 500Kbps

Video
Formato: AVC
Formato/Info: Advanced Video Codec
Formato del perfil : High@L4.1
Ajustes del formato, CABAC: Si
Ajustes del formato, RefFrames: 5marcos
ID Códe : V_MPEG4/ISO/AVC
Tasa de bits: 3 047Kbps
Ancho: 1 280pixeles
Alto: 720pixeles
Relación de aspecto: 16:9
Modo de velocidad de cuadro: Constante
Velocidad de cuadro: 23,976fps
ColorSpace: YUV
BitDepth/String: 8bits
Tipo de exploración : Progresivo
Bits/(Pixel*cuadro) : 0.138

Audio
Formato : AC-3
Formato/Info: Audio Coding 3
ID Códec : A_AC3
Duración: 1h 0min.
Tipo de tasa de bits : Constante
Tasa de bits : 384Kbps
Canal(es): 2canales
Posiciones del canal: Front: L R
Velocidad de muestreo: 48,0KHz
BitDepth/String : 16bits


Imagen enviada


Imagen enviada
The Walking Dead S05E07 ''Crossed" 5x07

http://binbox.io/4B50P#OKogRiTN
o
http://gpaste.us/f/471aa2c8

Agradecer No Cuesta Nada
Saludos y que disfruten de esta excelente serie.
Master Vlady

viernes, 21 de noviembre de 2014

Constantine 1x05 "Danse Vaudou" [720p HDTV][Mega-Zippyshare] S01E05 Subtitulos En Español Gratis




Constantine S01E05 1x05 ''Danse Vaudou"
Season 1
[720p HDTV] [English Subtitulos Español] 1x05

[MEDIAFIRE FIREDRIVE MEGA 1FICHIER SHARED]


Imagen enviada
Sinopsis En Nueva Orleans, el conocimiento inusual de Constantino de una cadena de crímenes le mete en problemas con el detective Jim Corrigan. Se debe formar una alianza impía con Papa Midnite cuando un ritual vudú para ayudar a la gente a comunicarse con sus seres queridos muertos toma un giro mortal.

Constantine S01E05 ''Danse Vaudou" 1x05 mega
Idioma: Ingles 
Subtitulos: Español
Este capitulo consta de 5  partes, 4  de 200mb y 1 de 192  mb aprox
Peso: 0.992 GB Aprox
TODOS LOS LINKS SON INTERCAMBIABLES ENTRE SI.
información Especifica Del Video

Formato : Matroska
Formato de la versión : Version 4 / Version 2
Tasa de bits total : 3 500Kbps

Video
Formato: AVC
Formato/Info: Advanced Video Codec
Formato del perfil : High@L4.1
Ajustes del formato, CABAC: Si
Ajustes del formato, RefFrames: 5marcos
ID Códe : V_MPEG4/ISO/AVC
Tasa de bits: 3 047Kbps
Ancho: 1 280pixeles
Alto: 720pixeles
Relación de aspecto: 16:9
Modo de velocidad de cuadro: Constante
Velocidad de cuadro: 23,976fps
ColorSpace: YUV
BitDepth/String: 8bits
Tipo de exploración : Progresivo
Bits/(Pixel*cuadro) : 0.138

Audio
Formato : AC-3
Formato/Info: Audio Coding 3
ID Códec : A_AC3
Duración: 1h 0min.
Tipo de tasa de bits : Constante
Tasa de bits : 384Kbps
Canal(es): 2canales
Posiciones del canal: Front: L R
Velocidad de muestreo: 48,0KHz
BitDepth/String : 16bits


Imagen enviada


Imagen enviada
Constantine S01E05 ''Danse Vaudou" 1x05 mega

http://binbox.io/qKk3k#JTcCTIcV
o
http://gpaste.us/f/a7516143

Agradecer No Cuesta Nada
Saludos y que disfruten de esta excelente serie.
Master Vlady

miércoles, 19 de noviembre de 2014

Arrow 3x07 "Draw Back Your Bow" [720p HDTV][Mega-1Fichier] S03E07 Subtitulos En Español Gratis




Arrow S03E07 3x07 ''Draw Back Your Bow"
Season 3 Temporada 3
[720p HDTV] [English Subtitulos Español] 3x07

[MEDIAFIRE FIREDRIVE MEGA 1FICHIER SHARED]


Imagen enviada
Sinopsis: Oliver debe detener a un asesino en serie obsesionado-Arrow, Carrie Cutter, que está convencido de que Arrow es su verdadero amor y no se detendrá ante nada para conseguir su atención. Por desgracia, su manera de conseguir su atención es matar a la gente. Mientras tanto, Ray le pregunta Felicity ser su fecha para una cena de trabajo con los clientes importantes. Thea audiciones para nuevos DJs Verdant y cumple con Chase, un DJ desparpajo con el que choca de inmediato.

Arrow S03E07 ''Draw Back Your Bow" 3x07
Idioma: Ingles 
Subtitulos: Español
Este capitulo consta de 5  partes, 4  de 200mb y 1 de 180  mb aprox
Peso: 0.97 GB Aprox
TODOS LOS LINKS SON INTERCAMBIABLES ENTRE SI.
información Especifica Del Video

Formato : Matroska
Formato de la versión : Version 4 / Version 2
Tasa de bits total : 3 500Kbps

Video
Formato: AVC
Formato/Info: Advanced Video Codec
Formato del perfil : High@L4.1
Ajustes del formato, CABAC: Si
Ajustes del formato, RefFrames: 5marcos
ID Códe : V_MPEG4/ISO/AVC
Tasa de bits: 3 047Kbps
Ancho: 1 280pixeles
Alto: 720pixeles
Relación de aspecto: 16:9
Modo de velocidad de cuadro: Constante
Velocidad de cuadro: 23,976fps
ColorSpace: YUV
BitDepth/String: 8bits
Tipo de exploración : Progresivo
Bits/(Pixel*cuadro) : 0.138

Audio
Formato : AC-3
Formato/Info: Audio Coding 3
ID Códec : A_AC3
Duración: 1h 0min.
Tipo de tasa de bits : Constante
Tasa de bits : 384Kbps
Canal(es): 2canales
Posiciones del canal: Front: L R
Velocidad de muestreo: 48,0KHz
BitDepth/String : 16bits


Imagen enviada


Imagen enviada
Arrow S03E07 ''Draw Back Your Bow" 3x07

http://binbox.io/n4Vox#TCmbhgND
o
http://gpaste.us/f/61c32f38

Agradecer No Cuesta Nada
Saludos y que disfruten de esta excelente serie.
Master Vlady

martes, 18 de noviembre de 2014

The Flash 1x06 "The Flash is Born" [720p HDTV][Mega-FireDrive] S01E06 Subtitulos En Español Gratis




The Flash 2014 S01E06 1x06 ''The Flash is Born"
Season 1
[720p HDTV] [English Subtitulos Español] 1x06

[MEDIAFIRE FIREDRIVE MEGA 1FICHIER SHARED]


Imagen enviada

Sinopsis: flash se enfrenta a un nuevo meta-humano llamado Tony, que puede convertirse a sí mismo en acero ceñido a voluntad. Mientras que el Dr. Wells y Caitlin están preocupados por la seguridad de Barry, Cisco se le ocurre un plan para llevar a Tony abajo. Mientras tanto, el blog de Iris en el flash la mete en problemas, y testigos Eddie habilidades de Tony de primera mano y comienza a hacer preguntas que Joe Martin) no quiere que sean contestadas. Joe le pregunta el Dr. Wells para ayudar a resolver el asesinato de Nora Allen.
The Flash S01E06 ''The Flash is Born" 1x06 mega
Idioma: Ingles 
Subtitulos: Español
Este capitulo consta de 5  partes, 4  de 200mb y 1 de 12  mb aprox
Peso: 0.812 GB Aprox
TODOS LOS LINKS SON INTERCAMBIABLES ENTRE SI.
información Especifica Del Video

Formato : Matroska
Formato de la versión : Version 4 / Version 2
Tasa de bits total : 3 500Kbps

Video
Formato: AVC
Formato/Info: Advanced Video Codec
Formato del perfil : High@L4.1
Ajustes del formato, CABAC: Si
Ajustes del formato, RefFrames: 5marcos
ID Códe : V_MPEG4/ISO/AVC
Tasa de bits: 3 047Kbps
Ancho: 1 280pixeles
Alto: 720pixeles
Relación de aspecto: 16:9
Modo de velocidad de cuadro: Constante
Velocidad de cuadro: 23,976fps
ColorSpace: YUV
BitDepth/String: 8bits
Tipo de exploración : Progresivo
Bits/(Pixel*cuadro) : 0.138

Audio
Formato : AC-3
Formato/Info: Audio Coding 3
ID Códec : A_AC3
Duración: 1h 0min.
Tipo de tasa de bits : Constante
Tasa de bits : 384Kbps
Canal(es): 2canales
Posiciones del canal: Front: L R
Velocidad de muestreo: 48,0KHz
BitDepth/String : 16bits


Imagen enviada


Imagen enviada
The Flash 1x06 ''The Flash is Born" S01E06
http://gpaste.us/f/5ce70675

Agradecer No Cuesta Nada
Saludos y que disfruten de esta excelente serie.
Master Vlady

lunes, 17 de noviembre de 2014

Gotham 1x09 "Harvey Dent" [720p HDTV][Mega-FireDrive] S01E09 Subtitulos En Español Gratis




Gotham S01E09 1x09 ''Harvey Dent"
Season 1
[720p HDTV] [English Subtitulos Español] 1x09

[MEDIAFIRE FIREDRIVE MEGA 1FICHIER SHARED]


Imagen enviada
Sinopsis: Selina conduce a un nuevo amigo en un peligroso viaje a través de Gotham para evadir a los asesinos en su camino. Después de un paso en falso, Gordon se reasigna a deber en Arkham Asylum.

Gotham S01E09 ''Harvey Dent" 1x09
Idioma: Ingles 
Subtitulos: Español
Este capitulo consta de 5  partes, 4  de 200mb y 1 de 12 mb aprox
Peso: 0.808 GB Aprox
TODOS LOS LINKS SON INTERCAMBIABLES ENTRE SI.
información Especifica Del Video

Formato : Matroska
Formato de la versión : Version 4 / Version 2
Tasa de bits total : 3 500Kbps

Video
Formato: AVC
Formato/Info: Advanced Video Codec
Formato del perfil : High@L4.1
Ajustes del formato, CABAC: Si
Ajustes del formato, RefFrames: 5marcos
ID Códe : V_MPEG4/ISO/AVC
Tasa de bits: 3 047Kbps
Ancho: 1 280pixeles
Alto: 720pixeles
Relación de aspecto: 16:9
Modo de velocidad de cuadro: Constante
Velocidad de cuadro: 23,976fps
ColorSpace: YUV
BitDepth/String: 8bits
Tipo de exploración : Progresivo
Bits/(Pixel*cuadro) : 0.138

Audio
Formato : AC-3
Formato/Info: Audio Coding 3
ID Códec : A_AC3
Duración: 1h 0min.
Tipo de tasa de bits : Constante
Tasa de bits : 384Kbps
Canal(es): 2canales
Posiciones del canal: Front: L R
Velocidad de muestreo: 48,0KHz
BitDepth/String : 16bits


Imagen enviada


Imagen enviada
Gotham S01E09 ''Harvey Dent" 1x09

http://binbox.io/QwpKj#1LG18gOB
o
http://gpaste.us/f/064050ff

Agradecer No Cuesta Nada
Saludos y que disfruten de esta excelente serie.
Master Vlady

The Walking Dead 5x06 "Consumed" [720p Web-dl] Audio Castellano [Mega-ZippyShare] S05E06




The Walking Dead S05E04 5x06 ''Consumed"
Season 5 - Temporada 5
[720p HDTV] [Audio Español España] 5x06

[MEDIAFIRE FIREDRIVE MEGA 4Shared 1FICHIER SHARED]


Imagen enviada
The Walking Dead S05E06 ''Consumed" 5x06
Sinopsis: Con mucha cautela, miembros de nuestro grupo se deben aventurar en un lugar conocido, para una heroica misión de rescate. Es un lugar enorme, al igual que los riesgos que deberán enfrentar.

Idioma: Castellano 
Subtitulos: Sin
Este capitulo consta de 4  partes,  3 de 200mb y 1 de 12  mb aprox
Peso: 0.61 GB Aprox
TODOS LOS LINKS SON INTERCAMBIABLES ENTRE SI.
información Especifica Del Video

Format : Matroska
Format version  : Version 4 / Version 2
File size   : 612 MiB
Duration  : 42mn 57s
Overall bit rate : 1 991 Kbps
Video
Format  : AVC
Format/Info : Advanced Video Codec
Format profile : High@L4.1
Format settings, ReFrames : 5 frames
Codec ID   : V_MPEG4/ISO/AVC
Duration : 42mn 57s
Bit rate : 1 800 Kbps
Width  : 1 280 pixels
Height : 720 pixels
Display aspect ratio  : 16:9
Frame rate: 23.976 fps
Bit depth: 8 bits
Scan type   : Progressive
Bits/(Pixel*Frame: 0.081
Stream size : 541 MiB (88%)
Audio
Format : AC-3
Format/Info : Audio Coding 3
Codec ID  : A_AC3
Duration : 42mn 57s
Bit rate mode  : Constant
Bit rate : 192 Kbps
Stream size: 59.0 MiB (10%)
Language  : Spanish

Imagen enviada


Imagen enviada
The Walking Dead S05E06 ''Consumed" 5x06

http://binbox.io/KNh0B#OhhOf36f
o
http://gpaste.us/f/278a637c
Agradecer No Cuesta Nada
Saludos y que disfruten de esta excelente serie.
Master Vlady

The Walking Dead 5x06 "Consumed" [720p HDTV][Mega-ZippyShare] S05E06 Subtitulos En Español Gratis




The Walking Dead S05E06 5x06 ''Consumed"
Season 5 - Temporada 6
[720p HDTV] [English Subtitulos Español] 5x06

[MEDIAFIRE FIREDRIVE MEGA 4Shared 1FICHIER SHARED]


Imagen enviada
The Walking Dead S05E06 ''Consumed" 5x06
Sinopsis: Con mucha cautela, miembros de nuestro grupo se deben aventurar en un lugar conocido, para una heroica misión de rescate. Es un lugar enorme, al igual que los riesgos que deberán enfrentar.

Idioma: Ingles 
Subtitulos: Español
Este capitulo consta de 8  partes,  7 de 200mb y 1 de 83  mb aprox
Peso: 1.44 GB Aprox
TODOS LOS LINKS SON INTERCAMBIABLES ENTRE SI.
información Especifica Del Video

Formato : Matroska
Formato de la versión : Version 4 / Version 2
Tasa de bits total : 3 500Kbps

Video
Formato: AVC
Formato/Info: Advanced Video Codec
Formato del perfil : High@L4.1
Ajustes del formato, CABAC: Si
Ajustes del formato, RefFrames: 5marcos
ID Códe : V_MPEG4/ISO/AVC
Tasa de bits: 3 047Kbps
Ancho: 1 280pixeles
Alto: 720pixeles
Relación de aspecto: 16:9
Modo de velocidad de cuadro: Constante
Velocidad de cuadro: 23,976fps
ColorSpace: YUV
BitDepth/String: 8bits
Tipo de exploración : Progresivo
Bits/(Pixel*cuadro) : 0.138

Audio
Formato : AC-3
Formato/Info: Audio Coding 3
ID Códec : A_AC3
Duración: 1h 0min.
Tipo de tasa de bits : Constante
Tasa de bits : 384Kbps
Canal(es): 2canales
Posiciones del canal: Front: L R
Velocidad de muestreo: 48,0KHz
BitDepth/String : 16bits


Imagen enviada


Imagen enviada
The Walking Dead S05E06 ''Consumed" 5x06

https://binbox.io/gRI7W#kd41d2ID
o
http://gpaste.us/f/08c26c01

Agradecer No Cuesta Nada
Saludos y que disfruten de esta excelente serie.
Master Vlady

 
Design by AnixGames Master Master Vlady | Bloggerized by Master Master VladyMaster Vlady
Master Vlady Opinión de Master Vlady del . Descarga Gratis Descarga En Anixgames tu serie, tu juego, tu anime Favorito Calificación: 4,5
Master Vlady 9,6 de 10 basada en 2142 puntuaciones 50495 opiniones de usuarios